* Dettagli Torrent   globale  | Commenti (1) 


- La sorella di Ursula - The Sister of Ursula (1978).720p.H264.ita.sub.eng.fre.Ac3-MIRCrew -


Download via torrent:
Categoria bittorrent BDRip
Descrizione
visitate mircrew-releases


The Sister of Ursula - La sorella di Ursula 1978.720p.H264.ita.sub.eng.fre.Ac3-MIRCrew



NO FOUND ONLY ORIGINAL RELEASE

My release is always in double track audio italian and Original audio
for select it use VLC or dvd player home
not use wmp

La sorella di Ursula - The Sister of Ursula 1978

Quality MIRCrew on HD 720p da  1,4 gb










Lingua originale italiano
Paese di produzione Italia
Anno 1978
Durata 90 min
Genere thriller
Regia Enzo Milioni
Soggetto Enzo Milioni
Sceneggiatura Enzo Milioni
Produttore Armando Bertuccioli



   Stefania D'Amario: Dagmar
   Barbara Magnolfi: Ursula
   Vanni Materassi: Roberto
   Marc Porel: signor Nardi
   Yvonne Harlow: Stella Shining
   Antiniska Nemour: Jenny
   Anna Zinnemann: Vanessa
   Giancarlo Zanetti: Filippo
   Alice Gherardi: giovane fidanzata uccisa
   Roberto De Ruggeriis: fidanzato ucciso
   Danila Trebbi: prostituta uccisa



Dopo la morte del padre, le sorelle Dagmar e Ursula si ritirano in un albergo della riviera ligure per cercare di superare il grosso momento di sconforto: soprattutto Ursula ne risente molto e appare agitata e depressa.................



While searching for their estranged mother, two beautiful sisters, Dagmar and Ursula, arrive at a luxurious seaside hotel. At the same time, a mysterious killer starts murdering promiscuous women in the area.

 





General
Unique ID                                : 188142206046203199242893369487188388094 (0x8D8ADEEF8CD84F3397ECFAA0DEF168FE)
Complete name                            : La sorella di Ursula - The Sister of Ursula (197.720p.ita.sub.eng.fre-MIRCrewLa sorella di Ursula - The Sister of Ursula (197.720p.ita.sub.eng.fre-MIRCrew.mkv
Format                                   : Matroska
Format version                           : Version 2
File size                                : 1.39 GiB
Duration                                 : 1h 34mn
Overall bit rate                         : 2 091 Kbps
Movie name                               : MIRCrew
Encoded date                             : UTC 2019-06-20T19:44:23Z
Writing application                      : mkvmerge v5.8.0 ('No Sleep / Pillow&#39 built on Sep  2 2012 15:37:04
Writing library                          : Lavf55.12.0

Video
ID                                       : 1
Format                                   : AVC
Format/Info                              : Advanced Video Codec
Format profile                           : [email protected]
Format settings, CABAC                   : Yes
Format settings, ReFrames                : 4 frames
Codec ID                                 : V_MPEG4/ISO/AVC
Duration                                 : 1h 34mn
Bit rate                                 : 1 900 Kbps
Width                                    : 1 280 pixels
Height                                   : 688 pixels
Display aspect ratio                     : 1.860
Frame rate                               : 23.976 fps
Color space                              : YUV
Chroma subsampling                       : 4:2:0
Bit depth                                : 8 bits
Scan type                                : Progressive
Bits/(Pixel*Frame)                       : 0.090
Stream size                              : 1.23 GiB (89%)
Title                                    : MIRCrew
Writing library                          : x264 core 142 r2479 dd79a61
Encoding settings                        : cabac=1 / ref=1 / deblock=1:0:0 / analyse=0x1:0x111 / me=hex / subme=2 / psy=1 / psy_rd=1.00:0.00 / mixed_ref=0 / me_range=16 / chroma_me=1 / trellis=0 / 8x8dct=0 / cqm=0 / deadzone=21,11 / fast_pskip=1 / chroma_qp_offset=0 / threads=9 / lookahead_threads=3 / sliced_threads=0 / nr=0 / decimate=1 / interlaced=0 / bluray_compat=0 / constrained_intra=0 / bframes=3 / b_pyramid=2 / b_adapt=1 / b_bias=0 / direct=1 / weightb=1 / open_gop=0 / weightp=1 / keyint=240 / keyint_min=24 / scenecut=40 / intra_refresh=0 / rc_lookahead=10 / rc=abr / mbtree=1 / bitrate=1900 / ratetol=1.0 / qcomp=0.60 / qpmin=0 / qpmax=69 / qpstep=4 / vbv_maxrate=50000 / vbv_bufsize=62500 / nal_hrd=none / filler=0 / ip_ratio=1.40 / aq=1:1.00
Language                                 : Italian
Default                                  : Yes
Forced                                   : No
Color primaries                          : BT.709-5, BT.1361, IEC 61966-2-4, SMPTE RP177
Transfer characteristics                 : BT.709-5, BT.1361
Matrix coefficients                      : BT.709-5, BT.1361, IEC 61966-2-4 709, SMPTE RP177

Audio
ID                                       : 2
Format                                   : AC-3
Format/Info                              : Audio Coding 3
Mode extension                           : CM (complete main)
Codec ID                                 : A_AC3
Duration                                 : 1h 34mn
Bit rate mode                            : Constant
Bit rate                                 : 192 Kbps
Channel(s)                               : 2 channels
Channel positions                        : Front: L R
Sampling rate                            : 48.0 KHz
Bit depth                                : 16 bits
Compression mode                         : Lossy
Delay relative to video                  : -5ms
Stream size                              : 130 MiB (9%)
Title                                    : Ita Ac3
Language                                 : Italian
Default                                  : Yes
Forced                                   : No

Menu
00:00:00.000                             : :Chapter 1
00:04:27.725                             : :Chapter 2
00:09:53.759                             : :Chapter 3
00:15:51.951                             : :Chapter 4
00:20:39.738                             : :Chapter 5
00:26:11.987                             : :Chapter 6
00:33:05.275                             : :Chapter 7
00:39:18.981                             : :Chapter 8
00:45:42.364                             : :Chapter 9
00:51:52.275                             : :Chapter 10
00:58:33.676                             : :Chapter 11
01:03:15.666                             : :Chapter 12
01:11:06.136                             : :Chapter 13
01:15:55.717                             : :Chapter 14
01:22:00.373                             : :Chapter 15
01:27:58.439                             : :Chapter 16




Info: Per scaricare devi usare un client come uTorrent o Transmission
AnnounceURL
udp://tracker.coppersurfer.tk:6969/announce
Hash 0f47b8438f29ed85520e9db18a43af68bd5c4048
Peers seeds: 70 , leech: 12
Size 1.39 GB
Completato 411x
Aggiunto 23.06.19 - 16:06:04
Uploader   robbyrs
Votazione (Voti: 0)


Condividi questo bittorrent:


html/blog:
">

bbcode/forum:




Aggiungi Commento
Ultimi commenti
 jackal98jackal98   
Grazie
24/06 09.14
Tutti commenti (1)